Aby korzystać z pełnej zawartoœci portalu należy się zalogować.

Jeżeli nie masz jeszcze konta to możesz je zarejestrować TUTAJ

Zapraszamy także do dyskusji na Forum SOADsite.pl

Ten aplet jest widoczny tylko dla niezalogowanych użytkowników!

SOAD Kubana Festival do pobrania FULLHD!

System of a DownPlik do pobrania TUTAJ
(aby go pobrać należy się zarejestrować. Proszę o nie wstawianie w komentarzach bezpośredniego linku do torrenta, podajemy tylko link do strony na której znaleźliśmy koncert. Torrenty są własnością użytkowników którzy je wstawiają.)

Informacje o pliku:
General
ID : 0 (0x0)
Complete name : F:\кубана\2013-08-07\System Of A Down.MTS
Format : BDAV
Format/Info : Blu-ray Video
File size : 17.4 GiB
Duration : 1h 32mn
Overall bit rate mode : Variable
Overall bit rate : 26.8 Mbps
Maximum Overall bit rate : 28.0 Mbps

Video
ID : 4113 (0x1011)
Menu ID : 1 (0x1)
Format : AVC
Format/Info : Advanced Video Codec
Format profile : High@L4.2
Format settings, CABAC : Yes
Format settings, ReFrames : 2 frames
Format settings, GOP : M=1, N=12
Codec ID : 27
Duration : 1h 32mn
Bit rate mode : Variable
Bit rate : 25.2 Mbps
Maximum bit rate : 26.0 Mbps
Width : 1 920 pixels
Height : 1 080 pixels
Display aspect ratio : 16:9
Frame rate : 50.000 fps
Color space : YUV
Chroma subsampling : 4:2:0
Bit depth : 8 bits
Scan type : Progressive
Bits/(Pixel*Frame) : 0.243
Stream size : 16.4 GiB (94%)

Audio
ID : 4352 (0x1100)
Menu ID : 1 (0x1)
Format : AC-3
Format/Info : Audio Coding 3
Mode extension : CM (complete main)
Format settings, Endianness : Big
Codec ID : 129
Duration : 1h 32mn
Bit rate mode : Constant
Bit rate : 448 Kbps
Channel(s) : 6 channels
Channel positions : Front: L C R, Side: L R, LFE
Sampling rate : 48.0 KHz
Bit depth : 16 bits
Compression mode : Lossy
Stream size : 298 MiB (2%)

Text
ID : 4608 (0x1200)
Menu ID : 1 (0x1)
Format : PGS
Codec ID : 144
Duration : 1h 32mn

Komentarze

Brak komentarzy. Może czas dodać swój?

Dodaj komentarz

Zaloguj się, aby móc dodać komentarz.